<?xml version="1.0" standalone="no"?>
<!DOCTYPE svg PUBLIC "-//W3C//DTD SVG 1.1//EN" "http://www.w3.org/Graphics/SVG/1.1/DTD/svg11.dtd" >
<svg xmlns="http://www.w3.org/2000/svg">
<metadata>Generated by IcoMoon</metadata>
<defs>
<font id="icomoon" horiz-adv-x="1024">
<font-face units-per-em="1024" ascent="960" descent="-64" />
<missing-glyph horiz-adv-x="1024" />
<glyph unicode="&#x20;" horiz-adv-x="512" d="" />
<glyph unicode="&#xe900;" glyph-name="play-button" d="M73.143 960l877.714-512-877.714-512z" />
<glyph unicode="&#xe901;" glyph-name="magnifying-glass" d="M1015.031-11.778l-248.848 248.848c66.753 76.743 107.168 176.873 107.168 286.311 0 240.901-195.945 436.619-436.619 436.619-240.901 0-436.619-195.945-436.619-436.619s195.945-436.619 436.619-436.619c109.439 0 209.568 40.415 286.311 107.168l248.848-248.848c5.903-5.903 13.85-9.082 21.57-9.082s15.667 2.952 21.57 9.082c11.807 11.807 11.807 31.333 0 43.14zM61.19 523.381c0 207.071 168.472 375.315 375.315 375.315 207.071 0 375.315-168.472 375.315-375.315s-168.245-375.542-375.315-375.542c-206.843 0-375.315 168.472-375.315 375.542z" />
<glyph unicode="&#xe902;" glyph-name="plus" d="M575.888 511.888v448.112h-127.775v-448.112h-448.112v-127.775h448.112v-448.112h127.775v448.112h448.112v127.775z" />
<glyph unicode="&#xe903;" glyph-name="minus" d="M0 488h1024v-80h-1024v80z" />
<glyph unicode="&#xe904;" glyph-name="paper-plane" d="M874.667 106.667c-3.499 0-6.997 0.597-10.325 1.707l-842.667 288c-12.117 4.181-20.565 15.104-21.589 27.861-0.939 12.757 5.76 24.875 17.067 30.805l960 501.333c10.709 5.504 23.637 4.651 33.365-2.304 9.813-6.997 14.891-18.859 13.141-30.805l-117.333-789.333c-1.408-9.387-6.912-17.664-15.061-22.613-5.035-3.072-10.795-4.651-16.597-4.651zM112.896 432.853l735.744-251.477 102.443 689.152zM405.333-21.333c-3.328 0-6.699 0.512-9.941 1.579-13.184 4.352-22.059 16.597-22.059 30.421v288c0 8.064 3.072 15.915 8.576 21.845l586.667 629.333c12.032 12.971 32.384 13.611 45.269 1.579 12.928-12.032 13.611-32.299 1.579-45.269l-578.091-620.075v-177.835l106.795 145.365c10.453 14.165 30.507 17.323 44.757 6.827 14.251-10.453 17.28-30.507 6.827-44.757l-164.565-224c-6.187-8.32-15.829-13.013-25.813-13.013z" />
<glyph unicode="&#xe905;" glyph-name="chatting" d="M708.060 896.756h-592.26c-63.86 0-115.8-51.94-115.8-115.8v-519c0-24.58 27.798-38.436 47.42-24.42l164.94 117.68c13.84 9.86 30.12 15.080 47.12 15.080h362.78c63.86 0 115.8 51.94 115.8 115.8v380.66c0 16.56-13.44 30-30 30zM562.34 533.336h-346.62c-16.56 0-30 13.42-30 30 0 16.56 13.44 30 30 30h346.62c16.56 0 30-13.44 30-30 0-16.58-13.44-30-30-30zM562.34 673.336h-346.62c-16.56 0-30 13.42-30 30 0 16.56 13.44 30 30 30h346.62c16.56 0 30-13.44 30-30 0-16.58-13.44-30-30-30zM1024 548.256v-518.98c0-24.414-27.658-38.536-47.42-24.42l-164.94 117.66c-13.84 9.86-30.12 15.080-47.12 15.080h-362.78c-63.86 0-115.8 51.96-115.8 115.82v56.88h336.32c96.94 0 175.8 78.86 175.8 175.8v177.98h110.14c63.86 0 115.8-51.96 115.8-115.82z" />
<glyph unicode="&#xe906;" glyph-name="right-arrow" d="M1012.268 476.314c-0.012 0.012-0.022 0.026-0.036 0.038l-209.008 208c-15.658 15.582-40.984 15.524-56.57-0.136-15.584-15.658-15.524-40.984 0.134-56.568l140.328-139.648h-847.116c-22.092 0-40-17.908-40-40s17.908-40 40-40h847.114l-140.324-139.648c-15.658-15.584-15.718-40.91-0.134-56.568 15.586-15.662 40.914-15.716 56.57-0.136l209.008 208c0.012 0.012 0.022 0.026 0.036 0.038 15.666 15.636 15.616 41.044-0.002 56.628z" />
<glyph unicode="&#xe907;" glyph-name="online-shopping" d="M528 784v-32h50.896l26.368-131.824c-17.184-7.312-29.264-24.352-29.264-44.176 0-26.464 21.536-48 48-48s48 21.536 48 48c0 5.632-1.152 10.976-2.944 16h69.904c-1.808-5.024-2.96-10.368-2.96-16 0-26.464 21.536-48 48-48s48 21.536 48 48c0 18.704-10.848 34.752-26.496 42.672l26.496 66.256v35.072h-214.096l-12.8 64zM640 576c0-8.816-7.168-16-16-16s-16 7.184-16 16 7.168 16 16 16 16-7.184 16-16zM784 560c-8.832 0-16 7.184-16 16s7.168 16 16 16 16-7.184 16-16-7.168-16-16-16zM798.768 688l-25.6-64h-136.048l-12.8 64zM288 880h96v-32h-96zM224 880h32v-32h-32zM240 48h128v-32h-128zM1005.872 42.448l-51.52 206.080c-8.144 32.656-37.36 55.472-71.024 55.472h-134.656c-33.664 0-62.88-22.816-71.008-55.456l-2.144-8.544h-83.52v189.904c35.344-12.64 73.104-16.8 111.376-11.872 106.784 13.776 193.744 101.168 206.768 207.76 9.072 74.16-15.68 146.848-67.92 199.392-52.272 52.56-124.848 77.76-198.928 69.136-18.496-2.144-36.352-6.56-53.376-12.768-8.048 35.68-39.856 62.448-77.92 62.448h-416c-44.112 0-80-35.888-80-80v-832c0-44.112 35.888-80 80-80h838.784c40.368 0 73.216 32.848 73.216 73.216 0 5.808-0.72 11.632-2.128 17.232zM784 272h64v-32c0-17.648-14.352-32-32-32s-32 14.352-32 32zM451.504 112h-339.504v672h357.040c-16.368-25.84-28-54.96-33.408-86.224-8.496-48.992-1.952-98.24 18.928-142.944l-35.936-96.944c-1.744-4.592-2.624-9.472-2.624-14.448v-2c0-22.848 18.592-41.44 41.44-41.44 6.976 0 13.888 1.776 20.048 5.168l18.512 10.24v-190.544c-12.704-9.776-22.192-23.68-26.32-40.128zM560 208h96v-48c0-26.464-21.536-48-48-48s-48 21.536-48 48zM560 240h-19.504c-4.256 0-8.432-0.384-12.496-1.088v194.176l25.808 14.256c2.032-1.152 4.128-2.112 6.192-3.2zM646.992 862.544c64.336 7.44 127.264-14.352 172.528-59.92 45.28-45.552 66.736-108.592 58.88-172.96-11.28-92.304-86.608-167.968-179.104-179.92-48.336-6.272-95.52 4.016-136.736 29.616l-7.968 4.944-92.528-51.136c-6.096-3.36-14.064 1.456-14.064 8.272v2c0 1.12 0.192 2.208 0.592 3.28l40.752 109.936-3.12 6.224c-20.192 40.176-26.784 84.944-19.056 129.456 15.52 89.696 89.472 159.696 179.824 170.208zM48 32v832c0 26.464 21.536 48 48 48h416c25.12 0 45.552-19.456 47.6-44.048-25.056-13.344-47.6-30.912-66.448-51.952h-381.152c-17.648 0-32-14.352-32-32v-672c0-17.648 14.352-32 32-32h331.504l-9.328-37.328c-1.44-5.808-2.176-11.76-2.176-17.68 0-15.184 4.688-29.296 12.656-40.992h-348.656c-26.464 0-48 21.536-48 48zM704.048-16h-199.056c-22.608 0-40.992 18.384-40.992 40.992 0 3.328 0.416 6.688 1.216 9.952l35.504 142.032c3.52 14.048 14.048 24.784 27.28 29.008v-45.984c0-44.112 35.888-80 80-80s80 35.888 80 80v45.984c13.232-4.24 23.76-14.96 27.28-29.008l35.488-142.016c0.816-3.296 1.232-6.64 1.232-9.968 0-22.608-18.384-40.992-40.992-40.992zM934.784-16h-163.44c7.968 11.696 12.656 25.792 12.656 40.992 0 5.92-0.736 11.872-2.192 17.696l-35.504 142.032c-5.44 21.76-20.368 38.944-39.632 48.064l2 8c4.608 18.368 21.040 31.216 40 31.216h3.328v-32c0-35.296 28.704-64 64-64s64 28.704 64 64v32h3.328c18.96 0 35.392-12.848 39.984-31.216l51.536-206.080c0.768-3.088 1.152-6.288 1.152-9.488 0-22.736-18.48-41.216-41.216-41.216zM400 752h-256v-128h256zM368 656h-192v64h192zM144 592h256v-32h-256zM144 528h256v-32h-256zM400 464h-256v-128h256zM368 368h-192v64h192zM144 304h320v-32h-320zM144 240h320v-32h-320zM144 176h160v-32h-160zM400 176h32v-32h-32zM336 176h32v-32h-32z" />
<glyph unicode="&#xe908;" glyph-name="growth" d="M994.64 671.776l-43.584 7.264c-7.457 28.808-18.275 54.091-32.284 77.226l0.716-1.274 25.76 36.048c1.86 2.581 2.975 5.807 2.975 9.293 0 4.419-1.791 8.419-4.687 11.315l-67.888 67.888c-2.896 2.896-6.896 4.687-11.315 4.687-3.486 0-6.712-1.115-9.341-3.008l0.047 0.032-36.048-25.76c-21.861 13.293-47.144 24.111-73.965 31.126l-1.987 0.442-7.264 43.584c-1.311 7.627-7.874 13.358-15.776 13.36h-96c-7.902-0.002-14.465-5.733-15.762-13.265l-0.014-0.095-7.264-43.584c-28.808-7.457-54.091-18.275-77.226-32.284l1.274 0.716-36.048 25.76c-2.581 1.86-5.807 2.975-9.293 2.975-4.419 0-8.419-1.791-11.315-4.687l-67.888-67.888c-2.896-2.896-4.687-6.896-4.687-11.315 0-3.486 1.115-6.712 3.008-9.341l-0.032 0.047 25.76-36.048c-13.293-21.861-24.111-47.144-31.126-73.965l-0.442-1.987-43.584-7.264c-7.627-1.311-13.358-7.874-13.36-15.776v0-96c0.002-7.902 5.733-14.465 13.265-15.762l0.095-0.014 43.584-7.264c7.457-28.808 18.275-54.091 32.284-77.226l-0.716 1.274-25.76-36.048c-1.86-2.581-2.975-5.807-2.975-9.293 0-4.419 1.791-8.419 4.687-11.315l67.888-67.872c2.896-2.896 6.896-4.687 11.315-4.687 3.486 0 6.712 1.115 9.341 3.008l-0.047-0.032 36.048 25.744c23.893-14.484 51.603-25.905 81.066-32.759l1.926-0.377v-247.376h-112v112h48c8.835 0.002 15.997 7.165 15.997 16 0 4.417-1.79 8.417-4.685 11.312l-112 112c-2.895 2.894-6.895 4.685-11.312 4.685s-8.417-1.79-11.312-4.685l-112-112c-2.894-2.895-4.685-6.895-4.685-11.312 0-8.835 7.161-15.998 15.996-16h48v-112h-144v80h48c8.835 0.002 15.997 7.165 15.997 16 0 4.417-1.79 8.417-4.685 11.312l-112 112c-2.895 2.894-6.895 4.685-11.312 4.685s-8.417-1.79-11.312-4.685l-112-112c-2.894-2.895-4.685-6.895-4.685-11.312 0-8.835 7.161-15.998 15.996-16h48v-80h-64c-8.837 0-16-7.163-16-16v0-96c0-8.837 7.163-16 16-16v0h960c8.837 0 16 7.163 16 16v0 96c0 8.837-7.163 16-16 16v0h-256v247.376c31.389 7.231 59.099 18.651 84.27 33.852l-1.278-0.716 36.048-25.744c2.581-1.86 5.807-2.975 9.293-2.975 4.419 0 8.419 1.791 11.315 4.687l67.888 67.872c2.896 2.896 4.687 6.896 4.687 11.315 0 3.486-1.115 6.712-3.008 9.341l0.032-0.047-25.76 36.048c13.293 21.861 24.111 47.144 31.126 73.965l0.442 1.987 43.584 7.264c7.627 1.311 13.358 7.874 13.36 15.776v0 96c-0.002 7.902-5.733 14.465-13.265 15.762l-0.095 0.014zM795.312 555.312l-112 112c-2.895 2.894-6.895 4.685-11.312 4.685s-8.417-1.79-11.312-4.685l-112-112c-2.894-2.895-4.685-6.895-4.685-11.312 0-8.835 7.161-15.998 15.996-16h48v-83.872c-66.118 26.324-112 89.779-112 163.951 0 97.202 78.798 176 176 176s176-78.798 176-176c0-74.172-45.882-137.628-110.812-163.533l-1.188-0.418v83.872h48c8.835 0.002 15.997 7.165 15.997 16 0 4.417-1.79 8.417-4.685 11.312v0zM384 224h-25.376l73.376 73.376 73.376-73.376h-25.376c-8.837 0-16-7.163-16-16v0-128h-64v128c0 8.837-7.163 16-16 16v0zM112 192h-25.376l73.376 73.376 73.376-73.376h-25.376c-8.837 0-16-7.163-16-16v0-96h-64v96c0 8.837-7.163 16-16 16v0zM976-16h-928v64h928zM640 80v464c0 8.837-7.163 16-16 16v0h-25.376l73.376 73.376 73.376-73.376h-25.376c-8.837 0-16-7.163-16-16v0-464zM976 573.552l-40.72-6.784c-6.51-1.112-11.621-6.029-13.005-12.342l-0.019-0.106c-7.045-32.285-19.313-60.816-36.014-86.169l0.59 0.953c-1.61-2.455-2.568-5.463-2.568-8.694 0-3.492 1.119-6.722 3.017-9.353l-0.032 0.047 24-33.712-48.72-48.704-33.712 24c-2.583 1.866-5.814 2.984-9.306 2.984-3.232 0-6.24-0.958-8.755-2.606l0.061 0.037c-21.486-14.078-46.413-25.289-73.049-32.278l-1.767-0.394v49.76c84.268 27.856 144 105.907 144 197.909 0 114.875-93.125 208-208 208s-208-93.125-208-208c0-92.002 59.732-170.053 142.531-197.487l1.469-0.422v-49.76c-28.435 7.395-53.388 18.628-75.865 33.331l0.969-0.595c-2.455 1.61-5.463 2.568-8.694 2.568-3.492 0-6.722-1.119-9.353-3.017l0.047 0.032-33.712-24-48.72 48.704 24 33.712c1.866 2.583 2.984 5.814 2.984 9.306 0 3.232-0.958 6.24-2.606 8.755l0.037-0.061c-16.111 24.4-28.379 52.931-35.114 83.537l-0.31 1.679c-1.403 6.419-6.514 11.336-12.929 12.435l-0.095 0.013-40.64 6.72v68.896l40.72 6.784c6.51 1.112 11.621 6.029 13.005 12.342l0.019 0.106c7.045 32.285 19.313 60.816 36.014 86.169l-0.59-0.953c1.61 2.455 2.568 5.463 2.568 8.694 0 3.492-1.119 6.722-3.017 9.353l0.032-0.047-24 33.712 48.72 48.72 33.712-24.080c2.583-1.866 5.814-2.984 9.306-2.984 3.232 0 6.24 0.958 8.755 2.606l-0.061-0.037c24.4 16.111 52.931 28.379 83.537 35.114l1.679 0.31c6.419 1.403 11.336 6.514 12.435 12.929l0.013 0.095 6.704 40.72h68.896l6.784-40.72c1.112-6.51 6.029-11.621 12.342-13.005l0.106-0.019c32.285-7.045 60.816-19.313 86.169-36.014l-0.953 0.59c2.455-1.61 5.463-2.568 8.694-2.568 3.492 0 6.722 1.119 9.353 3.017l-0.047-0.032 33.712 24.080 48.72-48.72-24-33.712c-1.866-2.583-2.984-5.814-2.984-9.306 0-3.232 0.958-6.24 2.606-8.755l-0.037 0.061c16.111-24.4 28.379-52.931 35.114-83.537l0.31-1.679c1.403-6.419 6.514-11.336 12.929-12.435l0.095-0.013 40.64-6.784z" />
<glyph unicode="&#xe909;" glyph-name="webpage" d="M992 784h-144v112c0 26.51-21.49 48-48 48v0h-576c-26.51 0-48-21.49-48-48v0-112h-144c-8.837 0-16-7.163-16-16v0-608c0-8.837 7.163-16 16-16v0h345.808l-21.328-64h-20.48c-35.346 0-64-28.654-64-64v0-48c0-8.837 7.163-16 16-16v0h448c8.837 0 16 7.163 16 16v0 48c0 35.346-28.654 64-64 64v0h-20.48l-21.328 64h345.808c8.837 0 16 7.163 16 16v0 608c0 8.837-7.163 16-16 16v0zM224 272h576c26.51 0 48 21.49 48 48v0 368h64v-448h-800v448h64v-368c0-26.51 21.49-48 48-48v0zM208 816h608v-496c0-8.837-7.163-16-16-16v0h-576c-8.837 0-16 7.163-16 16v0zM224 912h576c8.837 0 16-7.163 16-16v0-48h-608v48c0 8.837 7.163 16 16 16v0zM720 16v-32h-416v32c0 17.673 14.327 32 32 32v0h352c17.673 0 32-14.327 32-32v0zM633.808 80h-243.616l21.328 64h200.96zM976 176h-928v576h128v-32h-80c-8.837 0-16-7.163-16-16v0-480c0-8.837 7.163-16 16-16v0h832c8.837 0 16 7.163 16 16v0 480c0 8.837-7.163 16-16 16v0h-80v32h128zM384.48 499.888l-32-128c-0.301-1.161-0.474-2.493-0.474-3.866 0-8.837 7.163-16 16-16 1.373 0 2.705 0.173 3.977 0.498l-0.111-0.024 128 32c2.928 0.746 5.446 2.215 7.44 4.208l252.128 252.096c15.174 15.178 24.56 36.145 24.56 59.304 0 46.326-37.554 83.88-83.88 83.88-23.167 0-44.14-9.392-59.32-24.576l-252.112-252.096c-1.991-1.99-3.46-4.502-4.184-7.313l-0.024-0.111zM649.376 576l-137.376-137.36v25.36c0 8.837-7.163 16-16 16v0h-16v16c0 8.837-7.163 16-16 16v0h-25.36l137.36 137.376zM598.624 672l25.376 25.376 73.376-73.376-25.376-25.376zM448 480v-16c0-8.837 7.163-16 16-16v0h16v-35.504l-17.504-4.368-54.4 54.4 4.4 17.472zM399.072 426.304l27.2-27.2-36.32-9.088zM700.128 752c28.648-0.012 51.867-23.238 51.867-51.888 0-14.327-5.807-27.298-15.195-36.688l-16.8-16.8-73.36 73.376 16.816 16.816c9.325 9.379 22.237 15.184 36.504 15.184 0.059 0 0.118 0 0.177 0h-0.009zM544 368h32v-32h-32zM608 368h32v-32h-32zM672 368h32v-32h-32zM272 784h192v-32h-192zM496 784h32v-32h-32zM240 720h288v-32h-288z" />
<glyph unicode="&#xe90a;" glyph-name="front-end" d="M1008 444.112c0 46.256-37.632 83.888-83.872 83.888-15.888 0-30.976-4.576-44.128-12.768v380.768c0 26.464-21.536 48-48 48h-704c-26.464 0-48-21.536-48-48v-144h-16c-26.464 0-48-21.536-48-48v-256c0-26.464 21.536-48 48-48h16v-400c0-26.464 21.536-48 48-48h704c26.464 0 48 21.536 48 48v281.376l103.44 103.44c15.84 15.84 24.56 36.896 24.56 59.296zM128 912h704c8.832 0 16-7.184 16-16v-80h-736v80c0 8.816 7.168 16 16 16zM48 448v256c0 8.816 7.168 16 16 16h352c8.832 0 16-7.184 16-16v-256c0-8.816-7.168-16-16-16h-352c-8.832 0-16 7.184-16 16zM848 0c0-8.832-7.168-16-16-16h-704c-8.832 0-16 7.168-16 16v400h304c26.464 0 48 21.536 48 48v256c0 26.464-21.536 48-48 48h-304v32h736v-297.376l-32-32v105.376h-288v-160h233.376l-248.448-248.448-19.776-138.4 138.4 19.776 216.448 216.448zM539.312 110.064l50.752-50.752-59.2-8.448zM624 70.624l-25.376 25.376 265.376 265.376 25.376-25.376zM576 118.624l-25.376 25.376 265.376 265.376 25.376-25.376zM784 432h-224v96h224zM960.816 407.44l-48.816-48.816-73.376 73.376 48.832 48.8c9.776 9.808 22.8 15.2 36.672 15.2 28.608 0 51.872-23.28 51.872-51.888 0-13.664-5.536-27.024-15.184-36.672zM192 880h32v-32h-32zM128 880h32v-32h-32zM256 880h32v-32h-32zM193.008 484.953l64.156 192.062 30.353-10.139-64.156-192.062zM308.688 628.688l52.688-52.688-52.688-52.688 22.624-22.624 75.312 75.312-75.312 75.312zM148.688 651.312l-75.312-75.312 75.312-75.312 22.624 22.624-52.688 52.688 52.688 52.688zM816 752h-288v-160h288zM784 624h-224v96h224zM144 48h256v-32h-256zM144 112h320v-32h-320zM176 144h32v32h32v32h-32v160h-32v-160h-32v-32h32zM304 144h32v160h32v32h-32v32h-32v-32h-32v-32h32zM496 240v32h-32v96h-32v-96h-32v-32h32v-96h32v96zM432 48h32v-32h-32zM784 176h32v-32h-32zM784 48h32v-32h-32zM784 112h32v-32h-32z" />
<glyph unicode="&#xe90b;" glyph-name="checking" d="M352 384c0-123.712 100.288-224 224-224s224 100.288 224 224c0 123.712-100.288 224-224 224v0c-123.657-0.137-223.863-100.343-224-223.987v-0.013zM768 384c0-106.039-85.961-192-192-192s-192 85.961-192 192c0 106.039 85.961 192 192 192v0c105.991-0.118 191.882-86.009 192-191.989v-0.011zM886.624 176l4.688 4.688c2.894 2.895 4.685 6.895 4.685 11.312s-1.79 8.417-4.685 11.312l-56 56c18.148 36.593 28.767 79.686 28.767 125.259 0 118.48-71.771 220.196-174.208 264.045l-1.871 0.712v278.672c0 8.837-7.163 16-16 16v0h-640c-8.837 0-16-7.163-16-16v0-960c0-8.837 7.163-16 16-16v0h640c8.837 0 16 7.163 16 16v0 150.672c4.32 1.824 8.416 4.048 12.624 6.080l56-56c2.895-2.894 6.895-4.685 11.312-4.685s8.417 1.79 11.312 4.685v0l4.752 4.624 100.112-100.128c13.132-13.132 31.273-21.254 51.312-21.254 40.077 0 72.566 32.489 72.566 72.566 0 20.039-8.122 38.18-21.254 51.312v0zM832 384c0-141.385-114.615-256-256-256s-256 114.615-256 256c0 141.385 114.615 256 256 256v0c141.315-0.173 255.827-114.685 256-255.983v-0.017zM656-16h-608v928h608v-251.536c-24.165 7.321-51.938 11.536-80.695 11.536-159.058 0-288-128.942-288-288s128.942-288 288-288c28.757 0 56.529 4.215 82.733 12.060l-2.038-0.524zM729.728 140.896c36.242 23.227 66.148 53.133 88.684 88.224l0.692 1.152 38.272-38.272-89.376-89.376zM935.424-16c-0.028 0-0.062 0-0.095 0-11.171 0-21.283 4.538-28.592 11.871l-100.113 100.129 57.376 57.376 100.112-100.128c7.345-7.341 11.888-17.484 11.888-28.688 0-22.401-18.159-40.56-40.56-40.56-0.005 0-0.011 0-0.016 0h0.001zM96 720h512c8.837 0 16 7.163 16 16v0 128c0 8.837-7.163 16-16 16v0h-512c-8.837 0-16-7.163-16-16v0-128c0-8.837 7.163-16 16-16v0zM112 848h480v-96h-480zM80 688h320v-32h-320zM80 624h192v-32h-192zM80 560h192v-32h-192zM80 496h192v-32h-192zM80 48h544v-32h-544zM80 112h256v-32h-256zM80 176h256v-32h-256zM507.312 427.312c-2.895 2.894-6.895 4.685-11.312 4.685s-8.417-1.79-11.312-4.685l-48-48c-2.894-2.895-4.685-6.895-4.685-11.312s1.79-8.417 4.685-11.312l96-96c2.895-2.894 6.895-4.685 11.312-4.685s8.417 1.79 11.312 4.685l160 160c2.894 2.895 4.685 6.895 4.685 11.312s-1.79 8.417-4.685 11.312l-48 48c-2.895 2.894-6.895 4.685-11.312 4.685s-8.417-1.79-11.312-4.685l-100.688-100.688zM656 457.376l25.376-25.376-137.376-137.376-73.376 73.376 25.376 25.376 36.688-36.688c2.895-2.894 6.895-4.685 11.312-4.685s8.417 1.79 11.312 4.685v0z" />
<glyph unicode="&#xe90c;" glyph-name="recommend" d="M732.8 281.76c89.782 67.851 147.2 174.42 147.2 294.4 0 203.241-164.759 368-368 368s-368-164.759-368-368c0-119.98 57.418-226.549 146.274-293.729l0.926-0.671-190.56-190.4c-2.868-2.891-4.64-6.872-4.64-11.267 0-2.537 0.59-4.936 1.641-7.067l-0.042 0.094c2.649-5.393 8.102-9.040 14.407-9.040 0.561 0 1.116 0.029 1.662 0.085l-0.068-0.006 126.4 13.92v-110.080c0.034-6.612 4.074-12.272 9.815-14.681l0.105-0.039c1.679-0.811 3.651-1.284 5.734-1.284 0.122 0 0.243 0.002 0.364 0.005h-0.018c0.027 0 0.060 0 0.093 0 4.395 0 8.377 1.772 11.269 4.641l244.639 244.799 244.64-244.8c2.891-2.868 6.872-4.64 11.267-4.64 0.033 0 0.065 0 0.098 0h-0.005c0.103-0.003 0.224-0.004 0.346-0.004 2.083 0 4.055 0.474 5.814 1.319l-0.081-0.035c5.846 2.448 9.886 8.108 9.92 14.716v110.084l126.24-13.92c0.478-0.051 1.032-0.080 1.593-0.080 6.305 0 11.758 3.647 14.365 8.946l0.042 0.094c1.009 2.037 1.6 4.436 1.6 6.973 0 4.395-1.772 8.376-4.641 11.268l0.001-0.001zM176 576c0 185.568 150.432 336 336 336s336-150.432 336-336c0-185.568-150.432-336-336-336v0c-185.568 0-336 150.432-336 336v0zM266.72 108c-2.799 2.458-6.492 3.959-10.536 3.959-0.685 0-1.36-0.043-2.023-0.127l0.079 0.008-98.72-10.88 162.56 162.56c44.813-28.523 98.229-47.699 155.599-53.476l1.521-0.124-203.2-203.36v89.44c0 0.036 0 0.079 0 0.122 0 4.706-2.032 8.938-5.267 11.866l-0.014 0.012zM769.76 112c-0.584 0.075-1.259 0.119-1.944 0.119-4.044 0-7.737-1.5-10.554-3.974l0.018 0.016c-3.25-2.94-5.282-7.173-5.282-11.88 0-0.098 0.001-0.197 0.003-0.295v0.015-89.44l-203.2 203.36c58.89 5.901 112.307 25.077 158.593 54.474l-1.473-0.874 162.56-162.56zM816 576c0 167.895-136.105 304-304 304s-304-136.105-304-304c0-167.895 136.105-304 304-304v0c167.895 0 304 136.105 304 304v0zM252 656h164c0.027 0 0.060 0 0.093 0 4.395 0 8.377 1.772 11.269 4.641l63.999 63.999c2.868 2.891 4.64 6.872 4.64 11.267 0 0.033 0 0.065 0 0.098v-0.005 48c17.673 0 32-14.327 32-32v0-80c0-8.837 7.163-16 16-16v0h144v-32h-128v-32h128v-32h-128v-32h128v-32h-128v-32h128v-16c0-8.837-7.163-16-16-16v0h-188.16l-60.64 30.24c-2.093 1.095-4.569 1.744-7.195 1.76h-151.525c-15.457 32.823-24.48 71.291-24.48 111.867 0 0.047 0 0.094 0 0.141v-0.007c0.038 28.557 4.422 56.075 12.526 81.949l-0.526-1.949zM281.6 432h130.56l60.64-30.24c2.093-1.095 4.569-1.744 7.195-1.76h192.005c26.51 0 48 21.49 48 48v0 224c0 8.837-7.163 16-16 16v0h-144v64c0 35.346-28.654 64-64 64v0h-16c-8.837 0-16-7.163-16-16v0-57.44l-54.56-54.56h-144.96c43.749 95.137 138.236 160.004 247.873 160.004 150.221 0 272-121.779 272-272s-121.779-272-272-272c-96.865 0-181.904 50.634-230.093 126.878l-0.66 1.118zM144 784c0.178-0.007 0.387-0.011 0.597-0.011 8.837 0 16 7.163 16 16 0 1.542-0.218 3.033-0.625 4.444l0.028-0.113-13.6 45.92 23.040 16.8c3.986 2.945 6.542 7.627 6.542 12.905 0 1.095-0.11 2.164-0.32 3.197l0.017-0.103c-1.047 6.333-5.692 11.353-11.729 12.935l-0.111 0.025-37.28 8.96-16 30.56c-2.76 5.040-8.028 8.4-14.080 8.4s-11.32-3.36-14.038-8.317l-0.042-0.083-16-30.56-38.24-8.96c-6.282-1.497-11.065-6.549-12.147-12.865l-0.013-0.095c-0.192-0.93-0.302-2-0.302-3.095 0-5.279 2.556-9.96 6.499-12.875l0.044-0.031 23.36-16.8-13.6-45.92c-0.378-1.296-0.596-2.785-0.596-4.325 0-5.406 2.681-10.185 6.785-13.082l0.050-0.034c2.578-1.855 5.799-2.966 9.28-2.966s6.702 1.111 9.328 2.999l-0.048-0.033 39.2 29.12 38.56-28.32c2.554-2.136 5.822-3.495 9.401-3.678l0.039-0.002zM118.56 869.44c-4.289-2.915-7.069-7.77-7.069-13.276 0-1.423 0.186-2.803 0.534-4.116l-0.025 0.112 3.36-11.84-9.92 7.68c-2.61 1.925-5.89 3.082-9.44 3.082s-6.83-1.156-9.484-3.113l0.044 0.031-10.56-7.68 4 11.84c0.388 1.313 0.612 2.821 0.612 4.382 0 5.274-2.552 9.952-6.488 12.867l-0.043 0.031-5.28 3.36 11.2 2.88c4.378 1.146 7.948 3.985 10.038 7.758l0.042 0.082 5.92 10.56 5.76-10.56c2.166-3.886 5.798-6.734 10.13-7.817l0.11-0.023 11.36-2.88zM1008 883.040c-1.095 6.411-5.878 11.463-12.051 12.938l-0.109 0.022-37.28 9.44-16 30.56c-2.76 5.040-8.028 8.4-14.080 8.4s-11.32-3.36-14.038-8.317l-0.042-0.083-16-30.56-38.24-9.44c-6.025-1.537-10.62-6.346-11.823-12.378l-0.017-0.102c-0.192-0.93-0.302-2-0.302-3.095 0-5.279 2.556-9.96 6.499-12.875l0.044-0.031 23.040-16.8-13.6-46.4c-0.378-1.296-0.596-2.785-0.596-4.325 0-5.406 2.681-10.185 6.785-13.082l0.050-0.034c2.578-1.855 5.799-2.966 9.28-2.966s6.702 1.111 9.328 2.999l-0.048-0.033 39.2 29.12 38.56-28.32c2.554-2.136 5.822-3.495 9.401-3.678l0.039-0.002c0.178-0.007 0.387-0.011 0.597-0.011 8.837 0 16 7.163 16 16 0 1.542-0.218 3.033-0.625 4.444l0.028-0.113-12.96 45.92 23.040 16.8c3.825 2.954 6.265 7.541 6.265 12.697 0 1.17-0.125 2.31-0.364 3.408l0.019-0.105zM950.88 869.44c-4.445-2.892-7.344-7.835-7.344-13.456 0-1.358 0.169-2.676 0.487-3.934l-0.024 0.111 3.36-11.84-9.92 7.68c-2.61 1.925-5.89 3.082-9.44 3.082s-6.83-1.156-9.484-3.113l0.044 0.031-10.56-7.68 4 11.84c0.388 1.313 0.612 2.821 0.612 4.382 0 5.274-2.552 9.952-6.488 12.867l-0.043 0.031-4.64 3.36 10.56 2.88c4.378 1.146 7.948 3.985 10.038 7.758l0.042 0.082 5.92 10.56 5.76-10.56c2.132-3.855 5.702-6.694 9.969-7.815l0.111-0.025 11.36-2.88z" />
<glyph unicode="&#xe90d;" glyph-name="consulting" d="M960 288c0 11.984-3.52 23.088-9.264 32.688 32.096 3.408 57.264 30.32 57.264 63.312 0 29.76-20.416 54.848-48 61.984v114.016c0 79.392-64.592 144-144 144h-144c-35.296 0-64-28.704-64-64 0-30.848 21.936-56.656 51.024-62.672-15.024-24.608-35.024-63.648-35.024-97.328v-9.888l32-16v-12.224c0-22.064 12.272-41.904 32-51.776 8-4 16.96-6.112 25.888-6.112h22.112v-35.872l-43.152-10.432c-46.336-11.584-79.328-50.976-83.92-97.696h-128.928v11.664c0 26.848-8.88 53.488-25.008 74.992-19.36 25.84-47.584 42.992-79.456 48.304l-29.792 4.96c19.584 17.2 33.088 41.072 36.976 68.080h17.28c26.464 0 48 21.536 48 48 0 11.664-4.352 22.224-11.296 30.56 7.28 11.872 11.296 25.552 11.296 39.616v13.744c0 22.608-9.968 43.872-27.328 58.336l-44.448 37.040c-22.208 18.512-50.352 28.704-79.248 28.704h-31.28c-39.36 0-76.032-18.544-99.344-49.92l-12.816-3.2c-33.872-8.48-57.536-38.768-57.536-73.68 0-14.256 3.984-28.176 11.552-40.256l3.744-6c-9.36-8.768-15.296-21.136-15.296-34.944 0-26.464 21.536-48 48-48h17.28c3.888-26.992 17.392-50.864 36.976-68.080l-29.792-4.96c-31.872-5.312-60.096-22.464-79.456-48.304-16.128-21.504-25.008-48.128-25.008-74.992v-11.664h-48v-288h992v288h-48zM864 240v48c0 17.648 14.352 32 32 32s32-14.352 32-32v-48zM640 640c0 17.648 14.352 32 32 32h144c61.744 0 112-50.24 112-112v-114.016c-27.584-7.12-48-32.208-48-61.984h32c0 17.648 14.352 32 32 32s32-14.352 32-32-14.352-32-32-32h-30.064c-17.632 0-34.176 6.864-46.624 19.312-12.272 12.288-19.312 29.28-19.312 46.624v26.288l9.248 18.496c4.416 8.832 6.752 18.736 6.752 28.608v4.672c0 31.232-22.464 57.296-52.096 62.896l-5.44 16.288c-6.544 19.632-24.832 32.816-45.52 32.816h-88.944c-17.648 0-32 14.352-32 32zM800 384v32h-86.112c-4 0-8 0.944-11.584 2.736-8.816 4.416-14.304 13.28-14.304 23.152v32l-31.28 15.648c4.256 30.112 26.56 67.68 39.52 86.464h64.704c6.896 0 13.008-4.4 15.184-10.944l12.336-37.056h11.536c17.648 0 32-14.352 32-32v-4.672c0-4.944-1.168-9.888-3.376-14.304l-12.624-25.248v-33.84c0-24.656 9.152-47.84 25.68-65.936h-73.68v32zM700.592 306.656l53.376 13.344h86.928c-5.504-9.456-8.896-20.288-8.896-32v-48h-191.072c4.4 32 27.6 58.64 59.664 66.656zM576 208h192v-160h-192zM224 208h192v-160h-192zM240 356.72c10.144-3.040 20.88-4.72 32-4.72s21.856 1.68 32 4.72v-4.72c0-17.648-14.352-32-32-32s-32 14.352-32 32zM400 480h-16v32h16c8.832 0 16-7.184 16-16s-7.168-16-16-16zM128 496c0 8.816 7.168 16 16 16h16v-32h-16c-8.832 0-16 7.184-16 16zM173.392 544h-29.392c-1.008 0-1.952-0.24-2.944-0.304l-6.384 10.208c-4.352 6.992-6.672 15.040-6.672 23.296 0 20.208 13.68 37.728 33.28 42.64l24.592 6.144 3.44 5.152c17.056 25.6 45.616 40.88 76.368 40.88h31.28c21.44 0 42.304-7.552 58.768-21.28l44.448-37.040c10.064-8.384 15.824-20.704 15.824-33.776v-13.744c0-8.208-2.384-16.192-6.672-23.12-3.024 0.592-6.128 0.944-9.328 0.944h-30.416l-34.064 6.816c-25.936 5.184-49.52 17.808-68.208 36.496l-11.312 11.328-11.312-11.328c-19.184-19.184-42.944-33.856-68.688-42.448zM192 464v52.576c23.376 8.592 45.216 21.456 64.096 37.712 21.056-17.472 46.064-29.424 73.136-34.848l22.768-4.56v-50.88c0-44.112-35.888-80-80-80s-80 35.888-80 80zM96 251.664c0 19.984 6.608 39.792 18.592 55.792 14.4 19.216 35.408 31.984 59.104 35.936l34.576 5.76c1.536-33.936 29.408-61.152 63.728-61.152s62.192 27.216 63.712 61.168l34.576-5.76c23.696-3.952 44.704-16.704 59.104-35.936 11.984-16 18.592-35.824 18.592-55.792v-11.68h-351.984zM976-16h-928v224h144v-192h256v192h96v-192h256v192h176zM608 176h128v-32h-128zM608 112h128v-32h-128zM256 176h128v-32h-128zM256 112h128v-32h-128zM581.328 688c11.68 0 22.864 5.584 29.872 14.928l36.8 49.072h168c26.464 0 48 21.536 48 48v96c0 26.464-21.536 48-48 48h-224c-26.464 0-48-21.536-48-48v-170.672c0-20.576 16.752-37.328 37.328-37.328zM576 896c0 8.816 7.168 16 16 16h224c8.832 0 16-7.184 16-16v-96c0-8.816-7.168-16-16-16h-184l-46.384-61.856c-2.768-3.712-9.616-1.44-9.616 3.184zM176 752h200l36.8-49.072c7.008-9.344 18.192-14.928 29.872-14.928 20.576 0 37.328 16.752 37.328 37.328v170.672c0 26.464-21.536 48-48 48h-256c-26.464 0-48-21.536-48-48v-96c0-26.464 21.536-48 48-48zM160 896c0 8.816 7.168 16 16 16h256c8.832 0 16-7.184 16-16v-170.672c0-4.624-6.848-6.896-9.616-3.2l-46.384 61.872h-216c-8.832 0-16 7.184-16 16zM384 880h32v-32h-32zM256 880h32v-32h-32zM320 880h32v-32h-32zM192 880h32v-32h-32zM608 880h192v-32h-192z" />
<glyph unicode="&#xe90e;" glyph-name="increment" d="M653.856 713.232c-8.416 11.952-17.872 23.344-28.096 33.856l-22.96-22.304c9.056-9.328 17.424-19.408 24.896-30zM147.232 586.832l-5.36-42.832h37.264l-51.136-81.808-51.136 81.808h33.616l3.92 39.104c16 160.144 149.44 280.896 310.368 280.896 83.264 0 161.584-32.432 220.544-91.328l22.608 22.64c-64.992 64.928-151.344 100.688-243.152 100.688-177.44 0-324.56-133.152-342.224-309.712l-1.024-10.288h-62.384l108.864-174.192 108.864 174.192h-58.736l0.848 6.864c15.472 123.792 121.232 217.136 245.984 217.136 51.376 0 100.704-15.616 142.656-45.152l18.416 26.16c-47.36 33.36-103.056 50.992-161.072 50.992-140.864 0-260.272-105.392-277.728-245.168zM96-16h32v-32h-32zM96 48h32v-32h-32zM35.744 176h60.256v-96h32v128h-35.744l67.744 112.912 67.744-112.912h-35.744v-192h32v160h60.256l-124.256 207.088zM307.744 448h60.256v-368h32v400h-35.744l67.744 112.896 67.744-112.896h-35.744v-336h32v304h60.256l-124.256 207.104zM464 112h32v-32h-32zM464 48h32v-32h-32zM883.568 707.488c36.208 22.64 60.432 62.752 60.432 108.512 0 70.576-57.424 128-128 128s-128-57.424-128-128c0-45.76 24.224-85.872 60.432-108.512-72.576-27.424-124.432-97.424-124.432-179.488v-128c0-35.296 28.704-64 64-64h16v-320c0-35.296 28.704-64 64-64 19.2 0 36.256 8.672 48 22.112 11.744-13.44 28.8-22.112 48-22.112 35.296 0 64 28.704 64 64v320h16c35.296 0 64 28.704 64 64v128c0 82.064-51.856 152.064-124.432 179.488zM720 816c0 52.944 43.056 96 96 96s96-43.056 96-96-43.056-96-96-96-96 43.056-96 96zM863.456 680.816c-2.72-31.872-22.832-56.816-47.456-56.816-24.544 0-44.624 24.8-47.376 56.832 14.976 4.656 30.88 7.168 47.376 7.168 16.512 0 32.448-2.512 47.456-7.184zM976 400c0-17.648-14.352-32-32-32h-16v224h-32v-576c0-17.648-14.352-32-32-32s-32 14.352-32 32v400h-32v-400c0-17.648-14.352-32-32-32s-32 14.352-32 32v576h-32v-224h-16c-17.648 0-32 14.352-32 32v128c0 59.856 33.088 112.064 81.888 139.504 7.84-43.12 39.872-75.504 78.112-75.504s70.272 32.384 78.112 75.504c48.8-27.44 81.888-79.648 81.888-139.504zM800 560h32v-32h-32z" />
<glyph unicode="&#xe90f;" glyph-name="draw-check-mark" d="M412.705-38.958c33.113-33.515 106.863-22.406 114.804 30.293 49.405 327.18 296.619 603.198 483.698 863.29 51.872 72.075-67.4 140.543-118.597 69.326-170.956-237.651-386.429-487.72-470.725-776.098-96.33 98.448-193.049 195.963-301.092 282.471-68.424 54.808-166.3-41.75-97.139-97.135 140.766-112.752 262.416-244.233 389.052-372.148z" />
<glyph unicode="&#xe910;" glyph-name="wealth" d="M1008 332.144c0 108.080-54.288 207.488-145.184 265.92l-45.536 29.28c17.92 6.96 30.72 24.288 30.72 44.656 0 24.416-18.384 44.4-41.984 47.392l73.984 73.984v6.624c0 35.408-26.496 65.424-61.648 69.824l-29.472 3.68 15.36 49.904-90.672 22.672-40.816-54.4-25.392 38.112-108.288-21.664 11.728-35.168-25.184-3.136c-35.12-4.4-61.616-34.416-61.616-69.824v-6.624l73.984-73.984c-23.6-2.992-41.984-22.976-41.984-47.392 0-20.368 12.8-37.696 30.736-44.656l-45.536-29.28c-90.912-58.432-145.2-157.84-145.2-265.92 0-9.408 0.56-18.8 1.376-28.144h-155.76l-69.616-156.608v-3.392h-26.384l-69.616-156.608v-35.392h800v35.392l-20.544 46.224c125.968 43.744 212.544 163.824 212.544 298.528zM814.384 838.080c17.088-2.144 30.432-15.408 33.104-31.936l-86.112-86.144h-19.712l37.68 122.464zM632.624 894.208l38.608-57.888 55.184 73.6 37.328-9.328-55.568-180.592h-72.656l-54.608 163.856zM529.616 838.080l31.52 3.936 40.672-122.016h-19.184l-86.128 86.144c2.672 16.528 16.016 29.792 33.12 31.936zM544 688h256c8.832 0 16-7.168 16-16s-7.168-16-16-16h-256c-8.832 0-16 7.168-16 16s7.168 16 16 16zM686.48 144h-286.48v3.392l-55.376 124.608h284.992zM202.384 272h107.2l56.896-128h-220.96zM288 23.392l-39.376 88.608h78.768zM106.384 112h107.216l56.896-128h-220.976zM362.384 112h107.2l56.896-128h-220.96zM560-16v3.392l-55.376 124.608h220.992l56.88-128zM782.4 62.976l-36.016 81.024h-26.384v3.392l-27.152 61.104c41.808 2.56 75.152 37.056 75.152 79.504 0 44.112-35.888 80-80 80h-32c-26.464 0-48 21.536-48 48s21.536 48 48 48h80v-48h32v80h-80v32h-32v-32c-44.112 0-80-35.888-80-80s35.888-80 80-80h32c26.464 0 48-21.536 48-48s-21.536-48-48-48h-9.168l-28.448 64h-280.832c-0.912 9.328-1.552 18.72-1.552 28.144 0 97.136 48.784 186.48 130.496 239.008l82.192 52.848h182.608l82.192-52.848c81.728-52.528 130.512-141.872 130.512-239.008 0-121.984-79.008-230.608-193.6-269.168zM400.032 336.256l32-0.496c1.008 63.392 29.216 123.184 77.408 164.048l-20.688 24.4c-55.216-46.816-87.568-115.328-88.72-187.952zM511.296 541.264l17.872-26.528 24.496 15.808-17.312 26.912zM895.12 247.888l29.536-12.32c4.368 10.48 8.064 21.36 10.976 32.32l-30.944 8.224c-2.528-9.584-5.744-19.088-9.568-28.224zM943.984 335.328h-32l0.016-3.184c0-8.976-0.544-17.984-1.648-26.784l31.744-3.936c1.264 10.112 1.904 20.432 1.904 30.72zM865.056 196.512l25.216-19.68c6.96 8.896 13.392 18.368 19.152 28.192l-27.6 16.224c-5.040-8.624-10.688-16.928-16.768-24.736zM822.464 154.976l19.056-25.68c9.072 6.736 17.824 14.192 25.984 22.144l-22.336 22.912c-7.12-6.976-14.768-13.488-22.704-19.376zM224 752h32v-32h-32zM224 688h32v-32h-32zM256 720h32v-32h-32zM192 720h32v-32h-32zM240 432h32v-32h-32zM240 368h32v-32h-32zM272 400h32v-32h-32zM208 400h32v-32h-32zM368 912h32v-32h-32zM368 848h32v-32h-32zM400 880h32v-32h-32zM336 880h32v-32h-32zM912 752h32v-32h-32zM912 688h32v-32h-32zM944 720h32v-32h-32zM880 720h32v-32h-32zM96 544h32v-32h-32zM96 480h32v-32h-32zM128 512h32v-32h-32zM64 512h32v-32h-32zM96 896h32v-32h-32zM96 832h32v-32h-32zM128 864h32v-32h-32zM64 864h32v-32h-32z" />
<glyph unicode="&#xe911;" glyph-name="conversation" d="M32 464h282.080l107.52-92.144c2.778-2.387 6.419-3.841 10.4-3.841 8.831 0 15.991 7.155 16 15.984v80.001h96c8.837 0 16 7.163 16 16v0 144h224c8.837 0 16 7.163 16 16v0 288c0 8.837-7.163 16-16 16v0h-448c-8.837 0-16-7.163-16-16v0-144h-288c-8.837 0-16-7.163-16-16v0-288c0-8.837 7.163-16 16-16v0zM352 912h416v-256h-416zM48 752h272v-112c0-8.837 7.163-16 16-16v0h192v-128h-96c-8.837 0-16-7.163-16-16v0-61.216l-85.6 73.36c-2.769 2.396-6.405 3.856-10.382 3.856-0.006 0-0.013 0-0.019 0h-271.999zM448 864h224v-32h-224zM704 864h32v-32h-32zM384 800h352v-32h-352zM384 736h352v-32h-352zM992 80h-16v80c0 0.037 0 0.080 0 0.123 0 16.73-4.304 32.455-11.865 46.127l0.249-0.491 38.928 38.928c2.895 2.895 4.686 6.895 4.686 11.313 0 5.216-2.496 9.848-6.358 12.769l-0.040 0.029c-35.051 26.617-57.485 68.277-57.6 115.181v32.019c0 97.202-78.798 176-176 176s-176-78.798-176-176v0-32c-0.115-46.923-22.548-88.583-57.242-114.939l-0.358-0.261c-3.897-2.95-6.389-7.58-6.389-12.792 0-4.422 1.794-8.424 4.693-11.32v0l38.928-38.928c-7.322-13.189-11.632-28.924-11.632-45.666 0-0.033 0-0.066 0-0.099v0.005-80h-72.896c5.527 9.147 8.824 20.181 8.896 31.98v16.020c0 8.837-7.163 16-16 16v0h-16v144c0 26.51-21.49 48-48 48v0h-288c-26.51 0-48-21.49-48-48v0-144h-16c-8.837 0-16-7.163-16-16v0-16c0.072-11.819 3.369-22.853 9.055-32.285l-0.159 0.285h-24.896c-8.837 0-16-7.163-16-16v0-96c0-8.837 7.163-16 16-16v0h960c8.837 0 16 7.163 16 16v0 96c0 8.837-7.163 16-16 16v0zM624 384v32c0 79.529 64.471 144 144 144s144-64.471 144-144v0-32c0.137-50.906 21.741-96.739 56.233-128.945l0.103-0.095-24-24c-16.896 15.494-39.502 25.002-64.328 25.040h-48.008v20.224c29.152 20.461 47.978 53.918 48 91.773v64.003c0 0.002 0 0.004 0 0.006 0 5.039-2.329 9.533-5.969 12.466l-0.031 0.024-80 64c-2.713 2.187-6.202 3.51-10 3.51-8.837 0-16-7.163-16-16 0-0.002 0-0.004 0-0.006v0c-0.087-19.736-14.614-36.052-33.557-38.933l-0.219-0.027-64.496-9.2c-7.805-1.151-13.728-7.803-13.728-15.838 0-0.001 0-0.001 0-0.002v0-64c0.024-37.858 18.85-71.313 47.643-91.538l0.357-0.238v-20.224h-48c-24.845-0.011-47.47-9.504-64.456-25.057l0.072 0.065-24 24c34.601 32.283 56.22 78.097 56.384 128.962v0.030zM768 288c-44.161 0.055-79.945 35.839-80 79.995v50.133l50.752 7.248c24.868 3.753 45.282 19.823 55.066 41.689l0.182 0.455 54-43.2v-56.32c-0.055-44.161-35.839-79.945-79.995-80h-0.005zM736 260.8c9.576-2.995 20.586-4.72 32-4.72s22.424 1.725 32.785 4.929l-0.785-0.209v-20.8c0-17.673-14.327-32-32-32s-32 14.327-32 32v0zM592 160c0 35.346 28.654 64 64 64v0h50.272c7.249-27.799 32.131-47.985 61.728-47.985s54.479 20.186 61.63 47.542l0.098 0.443h50.272c35.346 0 64-28.654 64-64v0-80h-352zM112 288c0 8.837 7.163 16 16 16v0h288c8.837 0 16-7.163 16-16v0-144h-320zM80 112h384c0-17.673-14.327-32-32-32v0h-320c-17.673 0-32 14.327-32 32v0zM976-16h-928v64h928z" />
<glyph unicode="&#xe912;" glyph-name="suitcase" d="M640 682.667c-23.552 0-42.667 19.115-42.667 42.667v64h-170.667v-64c0-23.552-19.115-42.667-42.667-42.667s-42.667 19.115-42.667 42.667v64c0 47.061 38.272 85.333 85.333 85.333h170.667c47.061 0 85.333-38.272 85.333-85.333v-64c0-23.552-19.115-42.667-42.667-42.667zM542.293 303.787c-7.68-2.987-18.773-5.12-30.293-5.12s-22.613 2.133-32.853 5.973l-479.147 159.573v-325.547c0-64.853 52.48-117.333 117.333-117.333h789.333c64.853 0 117.333 52.48 117.333 117.333v325.547zM1024 629.333v-97.707l-501.76-167.253c-3.413-1.28-6.827-1.707-10.24-1.707s-6.827 0.427-10.24 1.707l-501.76 167.253v97.707c0 64.853 52.48 117.333 117.333 117.333h789.333c64.853 0 117.333-52.48 117.333-117.333z" />
<glyph unicode="&#xe913;" glyph-name="lamp" d="M512 812.501c-17.664 0-32 14.336-32 32v83.499c0 17.664 14.336 32 32 32s32-14.336 32-32v-83.499c0-17.664-14.336-32-32-32zM792.363 696.363c-8.192 0-16.384 3.115-22.613 9.387-12.501 12.501-12.501 32.768 0 45.269l59.051 59.051c12.501 12.501 32.768 12.501 45.269 0s12.501-32.768 0-45.269l-59.051-59.051c-6.272-6.229-14.464-9.387-22.656-9.387zM992 416h-83.499c-17.664 0-32 14.336-32 32s14.336 32 32 32h83.499c17.664 0 32-14.336 32-32s-14.336-32-32-32zM851.413 76.587c-8.192 0-16.384 3.115-22.613 9.387l-59.051 59.051c-12.501 12.501-12.501 32.768 0 45.269s32.768 12.501 45.269 0l59.051-59.051c12.501-12.501 12.501-32.768 0-45.269-6.272-6.272-14.464-9.387-22.656-9.387zM172.587 76.587c-8.192 0-16.384 3.115-22.613 9.387-12.501 12.501-12.501 32.768 0 45.269l59.051 59.051c12.501 12.501 32.768 12.501 45.269 0s12.501-32.768 0-45.269l-59.051-59.051c-6.272-6.272-14.464-9.387-22.656-9.387zM115.499 416h-83.499c-17.664 0-32 14.336-32 32s14.336 32 32 32h83.499c17.664 0 32-14.336 32-32s-14.336-32-32-32zM231.637 696.363c-8.192 0-16.384 3.115-22.613 9.387l-59.051 59.051c-12.501 12.501-12.501 32.768 0 45.269s32.768 12.501 45.269 0l59.051-59.051c12.501-12.501 12.501-32.768 0-45.269-6.315-6.229-14.464-9.387-22.656-9.387zM640 64v-53.333c0-40.96-33.707-74.667-74.667-74.667h-106.667c-35.84 0-74.667 27.307-74.667 87.040v40.96zM700.16 680.107c-69.973 56.747-162.133 78.933-252.16 59.733-113.067-23.467-204.8-115.627-228.267-228.693-23.893-116.053 19.627-231.253 112.64-301.653 25.173-18.773 42.667-47.787 48.64-81.493v-0.427c0.853 0.427 2.133 0.427 2.987 0.427h256c0.853 0 1.28 0 2.133-0.427v0.427c5.973 32.427 25.173 62.293 54.613 85.333 72.107 57.173 113.92 142.507 113.92 234.667 0 90.453-40.107 174.933-110.507 232.107zM672 426.667c-17.493 0-32 14.507-32 32 0 64.853-52.48 117.333-117.333 117.333-17.493 0-32 14.507-32 32s14.507 32 32 32c99.84 0 181.333-81.493 181.333-181.333 0-17.493-14.507-32-32-32zM381.013 128h2.987c-0.853 0-2.133 0-2.987-0.427zM642.133 128v-0.427c-0.853 0.427-1.28 0.427-2.133 0.427z" />
<glyph unicode="&#xe914;" glyph-name="darts" d="M788.48 588.8l-62.293-62.293c26.453-48.64 41.813-104.533 41.813-163.84 0-188.16-153.173-341.333-341.333-341.333s-341.333 153.173-341.333 341.333 153.173 341.333 341.333 341.333c59.307 0 115.2-15.36 163.84-41.813l62.293 62.293c-65.28 40.96-142.933 64.853-226.133 64.853-235.093 0-426.667-191.573-426.667-426.667s191.573-426.667 426.667-426.667 426.667 191.573 426.667 426.667c0 83.2-23.893 160.853-64.853 226.133zM678.4 478.72l-66.56-66.56c4.693-15.787 6.827-32.427 6.827-49.493 0-105.813-86.187-192-192-192s-192 86.187-192 192 86.187 192 192 192c17.067 0 33.707-2.133 49.493-6.827l66.56 66.56c-35.413 16.64-74.667 25.6-116.053 25.6-152.747 0-277.333-124.587-277.333-277.333s124.587-277.333 277.333-277.333 277.333 124.587 277.333 277.333c0 41.387-8.96 80.64-25.6 116.053zM426.667 234.667c-70.571 0-128 57.429-128 128s57.429 128 128 128 128-57.429 128-128-57.429-128-128-128zM426.667 405.333c-23.509 0-42.667-19.157-42.667-42.667s19.157-42.667 42.667-42.667 42.667 19.157 42.667 42.667-19.157 42.667-42.667 42.667zM426.667 330.667c-8.192 0-16.384 3.115-22.613 9.387-12.501 12.501-12.501 32.768 0 45.269l320 320c12.501 12.501 32.768 12.501 45.269 0s12.501-32.768 0-45.269l-320-320c-6.272-6.272-14.464-9.387-22.656-9.387zM864 661.333h-106.667c-17.664 0-32 14.336-32 32v106.667c0 8.491 3.371 16.64 9.387 22.613l128 128c9.173 9.173 22.955 11.861 34.859 6.955 11.947-4.949 19.755-16.64 19.755-29.568v-74.667h74.667c12.928 0 24.619-7.808 29.568-19.755s2.219-25.728-6.955-34.859l-128-128c-5.973-6.016-14.123-9.387-22.613-9.387z" />
<glyph unicode="&#xe915;" glyph-name="investigation" d="M752 704c-97.202 0-176-78.798-176-176s78.798-176 176-176c97.202 0 176 78.798 176 176v0c-0.114 97.156-78.844 175.886-175.989 176h-0.011zM752 384c-79.529 0-144 64.471-144 144s64.471 144 144 144c79.529 0 144-64.471 144-144v0c-0.092-79.492-64.508-143.908-143.991-144h-0.009zM992 528c-0.011 132.54-107.458 239.981-240 239.981-132.548 0-240-107.452-240-240 0-106.947 69.953-197.556 166.599-228.568l1.699-0.471c-5.196-7.553-8.299-16.896-8.299-26.965 0-20.767 13.199-38.451 31.666-45.12l0.334-0.105v-210.752c0-26.51 21.49-48 48-48s48 21.49 48 48v0 210.752c18.804 6.773 32.006 24.458 32.006 45.227 0 10.072-3.105 19.418-8.409 27.135l0.105-0.162c98.268 31.601 168.157 122.144 168.298 229.031v0.017zM768 224v-160h-32v160zM752 0c-8.832 0.010-15.99 7.168-16 15.999v16.001h32v-16c-0.010-8.832-7.168-15.99-15.999-16h-0.001zM784 288c8.837 0 16-7.163 16-16s-7.163-16-16-16v0h-64c-8.837 0-16 7.163-16 16s7.163 16 16 16v0zM752 320c-114.875 0-208 93.125-208 208s93.125 208 208 208c114.875 0 208-93.125 208-208v0c-0.134-114.821-93.179-207.866-207.987-208h-0.013zM64 896h89.374l59.312-59.314c2.895-2.895 6.895-4.686 11.313-4.686 0 0 0 0 0.001 0h416v-48h32v128c0 8.837-7.163 16-16 16v0h-608c-8.837 0-16-7.163-16-16v0-864c0-8.837 7.163-16 16-16v0h176v32h-160zM198.628 896h82.744l32-32h-82.746zM326.628 896h66.744l32-32h-66.744zM640 864h-169.372l-32 32h201.372zM297.054 19.25l-143.5 607.276 451.566 106.706-7.36 31.142-467.136-110.386c-7.116-1.725-12.319-8.040-12.319-15.571 0-1.305 0.156-2.574 0.451-3.789l-0.022 0.109 150.866-638.418c1.725-7.116 8.040-12.319 15.571-12.319 1.305 0 2.574 0.156 3.789 0.451l-0.109-0.022 386.83 91.41-7.36 31.14zM290.235 395.899l31.136 7.36 7.36-31.134-31.136-7.36zM352.504 410.605l139.725 33.028 7.36-31.134-139.725-33.028zM273.81 326.256l250.411 59.193 7.36-31.134-250.411-59.193zM288.527 263.981l283.686 67.058 7.36-31.134-283.686-67.058zM303.256 201.722l342.496 80.96 7.36-31.134-342.496-80.96zM317.98 139.457l280.224 66.24 7.36-31.134-280.224-66.24zM485.2 655.57l-258.318-61.040c-7.116-1.725-12.319-8.040-12.319-15.571 0-1.305 0.156-2.574 0.451-3.789l-0.022 0.109 29.436-124.57c1.713-7.117 8.024-12.324 15.551-12.324 1.312 0 2.588 0.158 3.808 0.457l-0.109-0.023 220 51.986-7.36 31.142-204.432-48.308-22.086 93.426 242.746 57.364z" />
<glyph unicode="&#xe916;" glyph-name="address" d="M631.999 440c-11.039 0-20-8.961-20-20s8.961-20 20-20 20 8.961 20 20-8.961 20-20 20zM204.336 220.43l-200-252c-4.773-6.008-5.68-14.219-2.344-21.125 3.336-6.914 10.336-11.305 18.008-11.305h983.999c7.672 0 14.672 4.391 18.008 11.305 3.344 6.906 2.43 15.117-2.344 21.125l-200 252c-3.789 4.781-9.562 7.57-15.664 7.57h-175.195l149.57 234.593c35.086 52.601 53.625 113.945 53.625 177.406 0 176.445-143.547 320-320 320s-320-143.554-320-320c0-63.461 18.539-124.797 53.625-177.406l149.57-234.593h-175.195c-6.102 0-11.867-2.789-15.664-7.57zM129.664 62.001h120.93l-68.25-86h-120.937zM420.703 188l54.828-86h-142.125l68.258 86zM603.304 188h19.039l68.25-86h-142.117zM722.343 62.001l68.25-86h-557.187l68.258 86zM841.663-23.999l-68.258 86h120.937l68.25-86zM862.593 102h-120.93l-68.258 86h120.937zM279.015 484.625c-30.758 46.047-47.016 99.773-47.016 155.375 0 154.39 125.609 280 280 280s280-125.609 280-280c0-55.601-16.258-109.328-47.008-155.375-0.086-0.117-0.156-0.234-0.234-0.352-13.133-20.602-222.64-349.21-232.757-365.070-25.445 39.914-206.843 324.429-232.757 365.070-0.070 0.117-0.148 0.234-0.227 0.352zM350.593 188l-68.25-86h-120.937l68.258 86zM511.999 440c109.797 0 200 88.914 200 200 0 110.281-89.719 200-200 200s-200-89.719-200-200c0-111.117 90.234-200 200-200zM511.999 800c88.226 0 160-71.773 160-160 0-89.047-72.351-160-160-160-87.672 0-160 70.953-160 160 0 88.226 71.773 160 160 160zM596.241 371.75c-9.453 5.703-21.75 2.656-27.453-6.805l-73.922-122.64c-5.703-9.461-2.656-21.75 6.805-27.453 9.5-5.727 21.773-2.617 27.453 6.805l73.922 122.64c5.703 9.461 2.656 21.75-6.805 27.453z" />
<glyph unicode="&#xe917;" glyph-name="contact" d="M529.953 493.961h46.672v-38.008c0-8.086 4.875-15.383 12.344-18.477 2.477-1.023 5.078-1.523 7.656-1.523 5.203 0 10.32 2.031 14.141 5.859l52.148 52.148h259.078c56.242 0 102.008 45.758 102.008 102.008v220.023c0 56.25-45.766 102.008-102.008 102.008h-392.039c-56.25 0-102.016-45.758-102.016-102.008v-220.023c0-56.25 45.766-102.008 102.016-102.008zM467.945 815.992c0 34.188 27.813 62.008 62.008 62.008h392.039c34.188 0 62-27.82 62-62.008v-220.023c0-34.188-27.813-62.008-62-62.008h-267.359c-5.305 0-10.391-2.109-14.148-5.859l-23.859-23.859v9.719c0 11.047-8.953 20-20 20h-66.672c-34.195 0-62.008 27.82-62.008 62.008zM533.836 584.297h208.023c11.039 0 20 8.961 20 20.008v31.641c0 37.602-26.43 69.125-61.68 77.031 4.961 9.617 7.781 20.5 7.781 32.039v12.531c0 38.664-31.453 70.117-70.117 70.117-38.656 0-70.109-31.453-70.109-70.117v-12.531c0-11.539 2.82-22.422 7.781-32.039-35.258-7.906-61.68-39.43-61.68-77.031v-31.641c0-11.047 8.953-20.008 20-20.008zM607.734 757.547c0 16.602 13.508 30.109 30.109 30.109s30.109-13.508 30.109-30.109v-12.531c0-16.602-13.508-30.109-30.109-30.109s-30.109 13.508-30.109 30.109zM553.836 635.945c0 21.484 17.477 38.961 38.961 38.961h90.094c21.484 0 38.961-17.477 38.961-38.961v-11.641h-168.016zM823.977 754.914h84.68c11.039 0 20 8.953 20 20s-8.961 20-20 20h-84.68c-11.039 0-20-8.953-20-20s8.961-20 20-20zM823.977 674.906h84.68c11.039 0 20 8.953 20 20s-8.961 20-20 20h-84.68c-11.039 0-20-8.953-20-20s8.961-20 20-20zM823.977 594.898h84.68c11.039 0 20 8.953 20 20s-8.961 20-20 20h-84.68c-11.039 0-20-8.953-20-20s8.961-20 20-20zM1018.141 8.437l-44.875 44.875c-6.484 6.484-15.102 10.055-24.273 10.055s-17.797-3.57-24.281-10.055l-32.172-32.172-32.227 32.227c-13.391 13.383-35.172 13.383-48.555 0l-32.016-32.016-33.844 33.844c-13.391 13.383-35.172 13.383-48.555 0l-28.891-28.891-43.75 74.156 23.438 15.766c0.016 0.016 0.039 0.023 0.055 0.039l2.766 1.859c26.719 17.984 43.828 46.68 46.93 78.742 3.102 32.055-8.18 63.5-30.945 86.273l-82.578 82.578c-37.367 37.359-97.523 41.781-139.945 10.281l-53.445-39.688c-4.047-3.008-9.781-2.586-13.344 0.977l-94.359 94.359c-3.563 3.563-3.984 9.297-0.984 13.344l39.695 53.445c31.5 42.422 27.078 102.586-10.281 139.938l-82.578 82.586c-22.773 22.773-54.227 34.047-86.281 30.945s-60.75-20.211-78.734-46.93l-2.422-3.602c-0.023-0.031-0.047-0.063-0.063-0.094l-29.984-44.563c-49.625-73.75-40.023-172.898 22.828-235.75l99.672-99.664c7.813-7.813 20.477-7.813 28.289 0 7.813 7.805 7.813 20.477 0 28.289l-99.672 99.664c-49.359 49.359-56.898 127.219-17.93 185.125l16.563 24.609 177.891-177.891-9.109-12.266c-14.734-19.844-12.664-48 4.813-65.477l94.359-94.352c17.477-17.484 45.625-19.555 65.477-4.813l13.094 9.711 177.922-177.922-25.469-17.141c-57.914-38.969-135.773-31.43-185.125 17.93l-99.664 99.664c-7.813 7.805-20.469 7.805-28.289 0-7.813-7.813-7.813-20.477 0-28.289l99.664-99.664c35.945-35.945 83.742-54.469 131.891-54.469 31.742 0 63.633 8.070 92.352 24.5l46.531-78.844c5.438-9.211 14.641-15.266 25.25-16.609 10.617-1.336 21.039 2.219 28.594 9.781l30.047 30.055 33.844-33.844c13.391-13.383 35.172-13.383 48.555 0l32.016 32.016 32.227-32.234c13.391-13.383 35.172-13.383 48.555 0l32.18 32.18 40.859-40.859c3.906-3.906 9.023-5.859 14.141-5.859 5.125 0 10.242 1.953 14.148 5.859 7.813 7.813 7.813 20.477 0 28.281zM104.93 692.023c11.023 11.344 25.719 18.508 41.773 20.063 20.133 1.945 39.844-5.125 54.133-19.414l82.578-82.586c23.438-23.438 26.211-61.188 6.453-87.797l-6.477-8.727zM468.274 343.883c26.609 19.766 64.359 16.992 87.797-6.453l82.578-82.578c14.289-14.289 21.367-34.023 19.422-54.133-1.523-15.711-8.422-30.117-19.344-41.055l-178.352 178.352zM224.859 298.875c-5.281 0-10.422-2.141-14.141-5.859-3.742-3.727-5.859-8.883-5.859-14.141 0-5.266 2.117-10.422 5.859-14.148 3.719-3.711 8.867-5.859 14.141-5.859 5.266 0 10.422 2.141 14.141 5.859 3.719 3.727 5.859 8.883 5.859 14.148 0 5.258-2.133 10.414-5.859 14.141-3.719 3.719-8.875 5.859-14.141 5.859z" />
</font>
</defs>
</svg>
